Videos pixelisent

  • Auteur de la discussion JDB_06
  • Date de début
J

JDB_06

Membre
Inscrit
26 Mai 2019
Messages
1
Points
1
Bonjour á tous,

Je rencontte des soucis lors de la lecture des vidéos encodées en x264 que ce soit avec vlc ou mx player.

Cela pixelise énormément au point de donner de gros pâté vers lors de certaines scènes.

J'ai essayé de modifier certains paramètres dans les 2 lecteurs, sans succès...

Je dispose d'une Galaxy Tab A 10.5 de 2018. Quelqu'un ayant ce modèle a-t-il la solution miracle pour ce type de problème ?

Merci d'avance !!

Voici un type de vidéo que je n'arrive pas à lire correctement par exemple :

General
Complete name : film.720p.mkv
Format : Matroska
Format version : Version 4
File size : 5.47 GiB
Duration : 2 h 0 min
Overall bit rate : 6 518 kb/s
Encoded date : UTC 2019-04-15 18:37:17
Writing application : mkvmerge v20.0.0 ('I Am The Sun') 32-bit
Writing library : libebml v1.3.5 + libmatroska v1.4.8

Video
ID : 1
Format : AVC
Format/Info : Advanced Video Codec
Format profile : High
Format level : 4.1
Format settings, CABAC : Yes
Format settings, Referenc : 8 frames
Codec ID : V_MPEG4/ISO/AVC
Duration : 2 h 0 min
Bit rate : 5 007 kb/s
Width : 1 280 pixels
Height : 536 pixels
Display aspect ratio : 2.40:1
Frame rate mode : Constant
Frame rate : 23.976 FPS
Color space : YUV
Chroma subsampling : 4:2:0
Bit depth : 8 bits
Scan type : Progressive
Bits/(Pixel*Frame) : 0.304
Stream size : 4.20 GiB (77%)
Writing library : x264 core 155 r2901 7d0ff22
Encoding settings : cabac=1 / ref=8 / deblock=1:0:0 / analyse=0x3:0x113 / me=umh / subme=8 / psy=1 / psy_rd=1.00:0.00 / mixed_ref=1 / me_range=16 / chroma_me=1 / trellis=2 / 8x8dct=1 / cqm=0 / deadzone=21,11 / fast_pskip=1 / chroma_qp_offset=-2 / threads=17 / lookahead_threads=4 / sliced_threads=0 / nr=0 / decimate=1 / interlaced=0 / bluray_compat=0 / constrained_intra=0 / bframes=3 / b_pyramid=2 / b_adapt=2 / b_bias=0 / direct=3 / weightb=1 / open_gop=0 / weightp=2 / keyint=240 / keyint_min=24 / scenecut=40 / intra_refresh=0 / rc_lookahead=60 / rc=2pass / mbtree=1 / bitrate=5007 / ratetol=1.0 / qcomp=0.60 / qpmin=0 / qpmax=69 / qpstep=4 / cplxblur=20.0 / qblur=0.5 / ip_ratio=1.40 / aq=1:1.00
Default : Yes
Forced : No
Color range : Limited
Color primaries : BT.709
Transfer characteristics : BT.709
Matrix coefficients : BT.709

Audio
ID : 2
Format : DTS
Format/Info : Digital Theater Systems
Format settings : Big
Codec ID : A_DTS
Duration : 2 h 0 min
Bit rate mode : Constant
Bit rate : 1 509 kb/s
Channel(s) : 6 channels
Channel layout : C L R Ls Rs LFE
Sampling rate : 48.0 kHz
Frame rate : 93.750 FPS (512 SPF)
Bit depth : 24 bits
Compression mode : Lossy
Stream size : 1.27 GiB (23%)
Language : French
Default : Yes
Forced : No

Menu
_00_00_00_000 : fr:(01)00:00:00:000
_00_10_12_820 : fr:(02)00:10:12:820
_00_19_20_492 : fr:(03)00:19:20:492
_00_30_27_325 : fr:(04)00:30:27:325
_00_41_02_293 : fr:(05)00:41:02:293
_00_54_33_019 : fr:(06)00:54:33:019
_01_06_07_338 : fr:(07)01:06:07:338
_01_15_48_335 : fr:(08)01:15:48:335
_01_23_11_778 : fr:(09)01:23:11:778
_01_32_59_240 : fr:(10)01:32:59:240
_01_42_15_504 : fr:(11)01:42:15:504
_01_54_05_213 : fr:(12)01:54:05:213
 
Dernière édition par un modérateur:
Dernière édition par un modérateur:
Skelett

Skelett

Moderateur Global
Inscrit
12 Mai 2013
Messages
11 858
Points
113
Salut,

Et sur un PC, ça donne quoi ? Et avec un 3ème lecteur ?
 

Haut Bas